【演唱会】【4K60帧】魔法未来 Magical Mirai 2019
最后修改 23-08-06 18:45:04
状态 已公开
下载检测 有效
好评如潮 100%
11 好评
0 差评
1688 点击
3 评论
13 收藏
0 分享
下载1
访问码
下载2
访问码
点击下载会自动复制提取密码到剪切板
在线播放

©来源: https://vcb-s.com/archives/12309

片源依然使用的VCB-Studio的BDRip

优化了一点超分的参数,观感会比之前发的好一点(应该)。这次就没配中文字幕进去,站内有的外挂字幕都能适配,大家自己动手翻翻。依然是HEVC 10bit编码。

B站预览:

【初音未来/4K/Hi-Res】「魔法未来2019」中日cc字幕 マジカルミライ 2019_哔哩哔哩_bilibili

 

仅供下载自用,严禁切片再次发布!

 

视频参数:

Format : Matroska
Format version : Version 4
File size : 27.6 GiB
Duration : 1 h 59 min
Overall bit rate mode : Variable
Overall bit rate : 33.0 Mb/s
Frame rate : 59.940 FPS
Encoded date : 2023-07-02 11:32:32 UTC
Writing application : mkvmerge v77.0 ('Elemental') 64-bit
Writing library : libebml v1.4.4 + libmatroska v1.7.1

Video
ID : 1
Format : HEVC
Format/Info : High Efficiency Video Coding
Format profile : Main 10@L5.1@Main
Codec ID : V_MPEGH/ISO/HEVC
Duration : 1 h 59 min
Bit rate : 31.1 Mb/s
Width : 3 840 pixels
Height : 2 160 pixels
Display aspect ratio : 16:9
Frame rate mode : Constant
Frame rate : 59.940 FPS
Color space : YUV
Chroma subsampling : 4:2:0
Bit depth : 10 bits
Bits/(Pixel*Frame) : 0.063
Stream size : 26.1 GiB (94%)
Default : No
Forced : No
Color range : Limited
Matrix coefficients : BT.709

Audio
ID : 2
Format : FLAC
Format/Info : Free Lossless Audio Codec
Codec ID : A_FLAC
Duration : 1 h 59 min
Bit rate mode : Variable
Bit rate : 1 847 kb/s
Channel(s) : 2 channels
Channel layout : L R
Sampling rate : 48.0 kHz
Frame rate : 11.719 FPS (4096 SPF)
Bit depth : 24 bits
Compression mode : Lossless
Stream size : 1.55 GiB (6%)
Writing library : libFLAC 1.3.2 (2017-01-01)
Language : Japanese
Default : Yes
Forced : No
MD5 of the unencoded conten : 117A60F7C1F57775F8F8D36F29D52A6B

Text
ID : 3
Format : PGS
Muxing mode : zlib
Codec ID : S_HDMV/PGS
Codec ID/Info : Picture based subtitle format used on BDs/HD-DVDs
Duration : 1 h 52 min
Bit rate : 21.6 kb/s
Frame rate : 0.363 FPS
Count of elements : 2446
Stream size : 17.3 MiB (0%)
Language : Japanese
Default : Yes
Forced : No

Menu
00:00:00.000 : ja:Opening
00:01:40.934 : ja:01. テオ / Omoi
00:05:09.075 : ja:02. すきなことだけでいいです / ピノキオピー
00:09:45.785 : ja:03. 愛の詩 / LamazeP
00:13:44.357 : ja:MC1
00:14:46.619 : ja:04. 快晴 / Orangestar
00:19:09.648 : ja:05. 深海シティアンダーグラウンド / 田中B
00:24:11.283 : ja:06. メインキャラクター / *Luna
00:27:30.916 : ja:07. ロミオとシンデレラ / doriko
00:30:46.344 : ja:08. からくりピエロ / 40mP
00:34:07.746 : ja:09. Catch the Wave / livetune
00:37:35.887 : ja:10. 劣等上等 / Giga
00:41:35.426 : ja:11. キレキャリオン / ポリスピカデリー
00:44:38.075 : ja:12. ある計画は今も密かに / 森羅
00:49:01.772 : ja:13. ラムネイドブルーの憧憬 / アオトケイ
00:53:28.372 : ja:Megurine Luka 10th Anniversary
00:54:25.195 : ja:14. Never Die / ゆよゆっぺ
00:57:59.142 : ja:15. どりーみんチュチュ / emon(Tes.)
01:02:06.990 : ja:16. ルカルカ★ナイトフィーバー / samfree
01:05:27.924 : ja:17. それがあなたの幸せとしても / Heavenz
01:10:25.221 : ja:MC2
01:11:28.618 : ja:18. Jump for Joy / EasyPop
01:15:50.112 : ja:Band Introduction
01:17:51.200 : ja:19. 大江戸ジュリアナイト / Mitchie M
01:21:50.272 : ja:20. ぶれないアイで / Mitchie M
01:25:46.274 : ja:21. ヒバナ / DECO*27
01:29:12.747 : ja:22. グリーンライツ・セレナーデ / Omoi
01:33:21.029 : ja:23. 僕が夢を捨てて大人になるまで / 傘村トータ
01:39:09.777 : ja:Encore
01:40:14.175 : ja:24. ローリンガール / wowaka [Encore]
01:43:33.307 : ja:25. Hand in Hand / livetune [Encore]
01:49:12.346 : ja:MC3
01:49:31.031 : ja:26. ブレス・ユア・ブレス / 和田たけあき [Encore]
01:55:29.923 : ja:Ending Credit

 

好评如潮 100%
文件解压教程

首先准备好解压工具, 电脑端安装 WINRAR, 手机端安装 Zarchiver 或者 ES文件管理器

然后有2种类型的压缩包:

1. 单一压缩文件的(可以单独下载和解压)

- 如果后缀名正常: 直接打开文件 > 输入密码 >解压文件 > 解压成功, 有的情况会有双层压缩, 再继续解压即可

- 如果需要修改后缀名: 不需要管文件原本后缀是什么,只要是压缩文件,后缀直接改成 .rar, 然后用解压工具打开,工具会自动识别正确的类型, 然后解压即可, (有的系统默认不能更改后缀名,这种情况, 要先百度下如何显示文件后缀名).

2. 多个压缩分卷文件的 (需要全部下载完毕后 才能正确解压)

- 如果后缀名正常: 只需要解压第一个分卷即可, 工具在解压过程中会自动调用其他分卷, 不需要每个分卷都解压一遍 (所以需要提前全部下载好), 不同压缩格式的第一个分卷命名是有区别的 (RAR格式的第一个分卷是叫 xxx.part1.rar , 7z格式的第一个压缩分卷是叫 xxx.001 , ZIP格式的第一个压缩分卷 就是默认的 XXX.zip ) .

- 如果是需要改后缀的情况 (比较少见): 需要把文件按顺序重新命名好才能正常解压, RAR的分卷命名格式是 xxx.part1.rar, xxx.part2.rar, xxx.part3.rar, 7z的命名格式是 xxx.001, xxx.002, xxx.003, ZIP的排序格式 xxx.zip, xxx.zip.001, xxx.zip.002

3 条评论
用户头像

天天在家手冲会不会阳痿? 如何锻炼自己的牛子持久不射? :?:

我也想像哥布林一样一天一个女骑士。:?:

那就快去“A酱的绅士玩具屋”吧, 初音社为大家申请到了限时粉丝专属价, 只有和客服A酱说是初音社来的就可以享受到优惠哦!~ :|

戳这里即可拥有>> 一个榨汁飞(lao)机(po)杯,快来我和签订契约成为绅(hen)士(tai)吧!

2024-03-09 12:12:12
淘宝店
初音社