【4K60帧】魔法未来2015 Magical Mirai 2015【夸克/阿里】
最后修改 23-08-06 18:45:20
状态 已公开
下载检测 有效
好评如潮 100%
1 好评
0 差评
330 点击
0 评论
1 收藏
0 分享
下载1
访问码
下载2
访问码
点击下载会自动复制提取密码到剪切板
在线播放

©来源: https://vmoe.info/5675

片源来自Vmoe字幕组1080p@60fps HEVC 10bit 内嵌特效高压版,本人仅对视频轨进行4K超分辨率,原视频音轨被压缩过,又封入无损音轨。

在线预览:

【初音未来/4K/Hi-res】「Magical Mirai 2015」[Vmoe特效字幕] 魔法未来2015_哔哩哔哩_bilibili

仅供下载自用,严禁切片再次发布!

视频信息

Format : Matroska
Format version : Version 4
File size : 30.3 GiB
Duration : 2 h 8 min
Overall bit rate : 33.8 Mb/s
Frame rate : 59.940 FPS
Encoded date : 2023-07-11 04:56:33 UTC
Writing application : mkvmerge v77.0 ('Elemental') 64-bit
Writing library : libebml v1.4.4 + libmatroska v1.7.1

Video
ID : 1
Format : HEVC
Format/Info : High Efficiency Video Coding
Format profile : Main 10@L5.1@Main
Codec ID : V_MPEGH/ISO/HEVC
Duration : 2 h 8 min
Bit rate : 31.4 Mb/s
Width : 3 840 pixels
Height : 2 160 pixels
Display aspect ratio : 16:9
Frame rate mode : Constant
Frame rate : 59.940 FPS
Color space : YUV
Chroma subsampling : 4:2:0
Bit depth : 10 bits
Bits/(Pixel*Frame) : 0.063
Stream size : 28.3 GiB (93%)
Title : Vmoe
Language : Japanese
Default : No
Forced : No
Color range : Limited
Matrix coefficients : BT.709

Audio
ID : 2
Format : PCM
Format settings : Little / Signed
Codec ID : A_PCM/INT/LIT
Duration : 2 h 8 min
Bit rate mode : Constant
Bit rate : 2 304 kb/s
Channel(s) : 2 channels
Sampling rate : 48.0 kHz
Frame rate : 32.000 FPS (1500 SPF)
Bit depth : 24 bits
Delay relative to video : 20 ms
Stream size : 2.07 GiB (7%)
Title : 2.0ch PCM
Language : Japanese
Default : No
Forced : No

Menu
00:00:00.000 : ja:BUDOKAN
00:00:13.013 : ja:Opening
00:02:13.133 : ja:01.Tell Your World / livetune
00:06:30.390 : ja:02.ラズベリー*モンスター / HoneyWorks
00:09:27.567 : ja:03.はじめまして地球人さん / ピノキオピー
00:13:24.103 : ja:MC1
00:14:08.848 : ja:04.独りんぼエンヴィー / koyori(電ポルP)
00:17:33.719 : ja:05.恋愛裁判 / 40mP
00:21:18.010 : ja:06.聖槍爆裂ボーイ / れるりり
00:25:02.468 : ja:07.ロストワンの号哭 / Neru
00:28:41.053 : ja:08.リモコン / じーざす (ワンダフル☆オポチュニティ! )
00:33:55.033 : ja:09.Nostalogic / yuukiss
00:38:18.630 : ja:10.スノーマン / halyosy
00:42:08.593 : ja:11.エンヴィキャットウォーク / トーマ
00:46:07.264 : ja:12.深海少女 / ゆうゆ
00:50:09.006 : ja:13.Sweet Devil / 八王子P
00:54:34.471 : ja:14.二次元ドリームフィーバー / PolyphonicBranch
00:57:52.569 : ja:15.キャットフード / doriko
01:02:58.775 : ja:16.アンハッピーリフレイン / wowaka
01:06:47.003 : ja:17.ロミオとシンデレラ / doriko
01:10:41.637 : ja:18 glow / keeno
01:15:24.987 : ja:19.愛Dee / Mitchie M
01:20:22.151 : ja:20.Just Be Friends / Dixie Flatline
01:25:20.115 : ja:Band Member Introduction
01:27:14.563 : ja:21.shake it! / emon
01:31:10.465 : ja:22.Packaged / livetune
01:36:11.766 : ja:23.ワールドイズマイン / ryo(supercell)
01:40:29.257 : ja:24.ODDS&ENDS / ryo(supercell)
01:47:16.964 : ja:ENCORE
01:48:20.327 : ja:25.Hand in Hand / livetune
01:53:41.815 : ja:26.39 / sasakure.UK×DECO*27
01:58:08.381 : ja:MC2
01:58:59.466 : ja:27.ハジメテノオト / malo
02:05:53.780 : ja:Ending

 

好评如潮 100%
文件解压教程

首先准备好解压工具, 电脑端安装 WINRAR, 手机端安装 Zarchiver 或者 ES文件管理器

然后有2种类型的压缩包:

1. 单一压缩文件的(可以单独下载和解压)

- 如果后缀名正常: 直接打开文件 > 输入密码 >解压文件 > 解压成功, 有的情况会有双层压缩, 再继续解压即可

- 如果需要修改后缀名: 不需要管文件原本后缀是什么,只要是压缩文件,后缀直接改成 .rar, 然后用解压工具打开,工具会自动识别正确的类型, 然后解压即可, (有的系统默认不能更改后缀名,这种情况, 要先百度下如何显示文件后缀名).

2. 多个压缩分卷文件的 (需要全部下载完毕后 才能正确解压)

- 如果后缀名正常: 只需要解压第一个分卷即可, 工具在解压过程中会自动调用其他分卷, 不需要每个分卷都解压一遍 (所以需要提前全部下载好), 不同压缩格式的第一个分卷命名是有区别的 (RAR格式的第一个分卷是叫 xxx.part1.rar , 7z格式的第一个压缩分卷是叫 xxx.001 , ZIP格式的第一个压缩分卷 就是默认的 XXX.zip ) .

- 如果是需要改后缀的情况 (比较少见): 需要把文件按顺序重新命名好才能正常解压, RAR的分卷命名格式是 xxx.part1.rar, xxx.part2.rar, xxx.part3.rar, 7z的命名格式是 xxx.001, xxx.002, xxx.003, ZIP的排序格式 xxx.zip, xxx.zip.001, xxx.zip.002

0 条评论
用户头像

天天在家手冲会不会阳痿? 如何锻炼自己的牛子持久不射? :?:

我也想像哥布林一样一天一个女骑士。:?:

那就快去“A酱的绅士玩具屋”吧, 初音社为大家申请到了限时粉丝专属价, 只有和客服A酱说是初音社来的就可以享受到优惠哦!~ :|

戳这里即可拥有>> 一个榨汁飞(lao)机(po)杯,快来我和签订契约成为绅(hen)士(tai)吧!

2024-03-09 12:12:12
淘宝店
初音社